Iron Man 3 BluRay Disc 1080p English Leaked Download - Netload | 1.48GB

Posted by Jett Catallorca on Wednesday, 24 April 2013 0



Iron Man 3 Blu Ray Disc 1080p English Leaked Download - Netload | 1.48GB


Release Dates:
18 April 2013 (New Zealand & UK)
24 April 2013 (Australia,Belgium,Finland,France,Iceland,Italy,Sweden)
25 April 2013 Argentina,Bolivia,Croatia,Denmark,Greece,Hungary,Singapore)
26 April 2013 (India,Brazil,Japan,Mexico,Norway,Romania,Spain,Vietnam)
1    May   2013 (Germany,South Africa,Thailand)
2    May   2013 (Israel,Kuwait,Lebanon,Russia,Serbia,Slovenia,Ukraine)
3    May   2013 (USA,Canada,Lithuania,Philippines,Turkey)

Genre: Action | Sci-Fi | Thriller 

Stars: Robert Downey Jr,Gwyneth Paltrow And Rebecca Hall


General

Complete name : Iron Man 3(2013) 1080p Blu-Ray AVC DTS-HD MA 5.9-HD-UK-New.Zealand 
Format : Matroska
Format version : Version 2
Duration : 02:10:20
Overall bit rate mode : Variable
Overall bit rate : 5 418 Kbps
Movie name : Iron Man 3 BluRay Rip
Language : English/Hindi
Subtitle : N/A
Quality : Bluray Rip 1080p
Resolution : 1920 x 1080
Source : Iron Man 3 2013 1080p Blu-Ray AVC DTS-HD MA 5.9-HD-UK-New.Zealand
Filesize : 1.76 Gb ( 1761.49 Mb )

Video
ID : 1
Format : AVC
Format/Info : Advanced Video Codec
Format profile : High@L4.1
Format settings, CABAC : Yes
Format settings, ReFrames : 4 frames
Format settings, GOP : M=1, N=3
Muxing mode : Header stripping
Codec ID : V_MPEG4/ISO/AVC
Duration : 2h 22mn
Bit rate mode : Variable
Bit rate : 4 382 Kbps
Maximum bit rate : 40.0 Mbps
Width : 1 920 pixels
Height : 1 080 pixels
Display aspect ratio : 16:9
Frame rate : 23.976 fps
Color space : YUV
Chroma subsampling : 4:2:0
Bit depth : 8 bits
Scan type : Progressive
Bits/(Pixel*Frame) : 0.088
Stream size : 1.02 GiB (79%)
Title : Iron Man 3(2013) 1080p[Dual Audio][ENG(5.1)-HINDI(5.1)]
Language : English
Default : Yes
Forced : No

Audio #1 ( Coming Soon ) ( HINDI AUDIO COMING SOON ON 28TH APRIL )
ID : 2
Format : AC-3
Format/Info : Audio Coding 3
Mode extension : CM (complete main)
Format settings, Endianness : Big
Muxing mode : Header stripping
Codec ID : A_AC3
Duration : 2h 22mn
Bit rate mode : Constant
Bit rate : 384 Kbps
Channel(s) : 6 channels
Channel positions : Front: L C R, Side: L R, LFE
Sampling rate : 48.0 KHz
Bit depth : 16 bits
Compression mode : Lossy
Stream size : 393 MiB (7%)
Title : Original DVD
Language : Hindi
Default : Yes
Forced : No

Audio #2
ID : 3
Format : AC-3
Format/Info : Audio Coding 3
Mode extension : CM (complete main)
Format settings, Endianness : Big
Muxing mode : Header stripping
Codec ID : A_AC3
Duration : 2h 22mn
Bit rate mode : Constant
Bit rate : 640 Kbps
Channel(s) : 6 channels
Channel positions : Front: L C R, Side: L R, LFE
Sampling rate : 48.0 KHz
Bit depth : 16 bits
Compression mode : Lossy
Stream size : 654 MiB (12%)
Title : BLURAY
Language : English
Default : No
Forced : No


Screenshots:
Iron Man Rise of Technovore 2013, Iron Man 3 BluRay Disc 1080p English Leaked Download - Netload, Iron Man 3 Download, Iron Man 3 free download.

Iron Man Rise of Technovore 2013, Iron Man 3 BluRay Disc 1080p English Leaked Download - Netload, Iron Man 3 Download, Iron Man 3 free download.

Iron Man Rise of Technovore 2013, Iron Man 3 BluRay Disc 1080p English Leaked Download - Netload, Iron Man 3 Download, Iron Man 3 free download.

Iron Man Rise of Technovore 2013, Iron Man 3 BluRay Disc 1080p English Leaked Download - Netload, Iron Man 3 Download, Iron Man 3 free download.




Tagged as:

Get Updates

Subscribe to our e-mail newsletter to receive updates.

Share This Post

Related posts

0 comments:

====================================================================
Thank you for supporting pinoydown.com! Visit our fb page also: Pinoydown Page
How to be a member? Click this link Signup
====================================================================

Awesome Members and Counting

© 2013 PinoyDown. WP Theme-junkie converted by Bloggertheme9
Blogger templates. Proudly Powered by Blogger.
back to top